Ошибка

(Reggae) Damian Marley - Дискография (1996-2010), FLAC (tracks+.cue), lossless

Ответить на тему
 
Автор Сообщение

MrPavlik

Пол: Пол:Муж

Стаж: 9 лет 8 месяцев

Сообщений: 151

Россия
Рейтинг

post 26-Мар-2012 03:15 0[+]

[Цитировать] 

Damian "Jr. Gong" Marley


pic="http://s002.youpic.su/pictures/1332705600/c84777d6c82111a5237f7a573a0548fd.jpg"


Жанр: Reggae
Год выпуска: 1996 - 2010
Производитель диска: USA
Аудио кодек: FLAC
Битрейт аудио: lossless
Total time: 04:08:27

Дэмиан 'Junior Gong' Марли — ямайский музыкант, регги-исполнитель, обладатель 3-х наград «Грэмми». Дэмиан — младший сын легендарного Боба Марли. Его мать — Синди Брэйкспир, обладательница титула «Мисс Мира ’76». Своё прозвище 'Junior Gong' Дэмиан получил от прозвища отца — 'Tuff Gong'.

Дэмиан выступает с 13 лет. Также, как и большая часть его семьи, он полностью посвятил себя музыке. На данный момент Дэмиан записал четыре альбома: Mr. Marley в 1996 году, Halfway Tree — в 2001, Welcome to Jamrock, выпущенный в сентябре 2005 года; в 2010 году совместно с рэпером по прозвищу Nas был записан еще один альбом - Distant Relatives. В 2002 году альбом Halfway Tree получил награду «Грэмми» как лучший регги-альбом. В 2006 году такую же награду получил альбом Welcome to Jamrock, а песня Welcome To Jamrock стала лучшей в номинации «Лучшее городское/альтернативное представление».

Альбомы:
Жанр: Reggae
Год выпуска альбома: 1996
Год издания данного носителя: 2007
Страна-производитель носителя: USA
Тип релиза: tracks+.cue
Аудио кодек: FLAC
Битрейт аудио: lossless
Продолжительность: 0:51:47
Треклист:
01. Trouble (5:35)
02. Love and Inity (4:04)
03. 10,000 Chariots (4:27)
04. Old War Chant (4:08)
05. Party Time (4:12)
06. Kingston 12 (3:34)
07. Keep On Grooving (4:36)
08. Searching (so much bubble) (5:00)
09. One More Cup of Coffee (4:27)
10. Julie (3:36)
11. Me Name Jr. Gong (3:51)
12. Mr. Marley (4:26)
Лейбл: Tuff Gong Records / Universal Republic Records
Каталоговый номер: B0010236-02
Каталоговый номер Amazon (ASIN): B000WM71F8
Тип рипа: tracks+.cue
Уровень сжатия аудио кодеком: EAC FLAC -8

Exact Audio Copy V0.99 prebeta 4 from 23. January 2008 

EAC extraction logfile from 26. March 2012, 3:52

Damian Marley / Mr. Marley

Used drive : ASUS DRW-22B2ST Adapter: 1 ID: 0

Read mode : Secure
Utilize accurate stream : Yes
Defeat audio cache : Yes
Make use of C2 pointers : No

Read offset correction : 6
Overread into Lead-In and Lead-Out : No
Fill up missing offset samples with silence : Yes
Delete leading and trailing silent blocks : No
Null samples used in CRC calculations : Yes
Used interface : Native Win32 interface for Win NT & 2000
Gap handling : Appended to previous track

Used output format : User Defined Encoder
Selected bitrate : 128 kBit/s
Quality : High
Add ID3 tag : No
Command line compressor : C:\Program Files (x86)\Exact Audio Copy\Flac\flac.exe
Additional command line options : -8 -V -T "ARTIST=%a" -T "TITLE=%t" -T "ALBUM=%g" -T "DATE=%y" -T "TRACKNUMBER=%n" -T "GENRE=%m" -T "COMMENT=EAC FLAC -8" %s

TOC of the extracted CD

Track | Start | Length | Start sector | End sector
---------------------------------------------------------
1 | 0:00.00 | 5:34.70 | 0 | 25119
2 | 5:34.70 | 4:03.43 | 25120 | 43387
3 | 9:38.38 | 4:26.55 | 43388 | 63392
4 | 14:05.18 | 4:07.40 | 63393 | 81957
5 | 18:12.58 | 4:12.22 | 81958 | 100879
6 | 22:25.05 | 3:33.58 | 100880 | 116912
7 | 25:58.63 | 4:35.40 | 116913 | 137577
8 | 30:34.28 | 4:59.57 | 137578 | 160059
9 | 35:34.10 | 4:26.63 | 160060 | 180072
10 | 40:00.73 | 3:36.00 | 180073 | 196272
11 | 43:36.73 | 3:51.00 | 196273 | 213597
12 | 47:27.73 | 4:25.57 | 213598 | 233529

Track 1

Filename E:\01. Damian Marley – Trouble.wav

Pre-gap length 0:00:02.00

Peak level 98.7 %
Track quality 100.0 %
Test CRC F854E44B
Copy CRC F854E44B
Accurately ripped (confidence 2) [6D4CCC14]
Copy OK

Track 2

Filename E:\02. Damian Marley – Love and Inity.wav

Pre-gap length 0:00:00.89

Peak level 98.7 %
Track quality 100.0 %
Test CRC AD4DC551
Copy CRC AD4DC551
Accurately ripped (confidence 2) [F9169A32]
Copy OK

Track 3

Filename E:\03. Damian Marley – 10,000 Chariots.wav

Pre-gap length 0:00:00.77

Peak level 99.0 %
Track quality 100.0 %
Test CRC 525E73E7
Copy CRC 525E73E7
Accurately ripped (confidence 2) [0B813E3B]
Copy OK

Track 4

Filename E:\04. Damian Marley – Old War Chant.wav

Pre-gap length 0:00:00.70

Peak level 98.9 %
Track quality 100.0 %
Test CRC 0518F5E8
Copy CRC 0518F5E8
Accurately ripped (confidence 2) [E8F36A02]
Copy OK

Track 5

Filename E:\05. Damian Marley – Party Time.wav

Pre-gap length 0:00:00.66

Peak level 98.1 %
Track quality 100.0 %
Test CRC 17CC0566
Copy CRC 17CC0566
Accurately ripped (confidence 2) [158C0350]
Copy OK

Track 6

Filename E:\06. Damian Marley – Kingston 12.wav

Peak level 98.4 %
Track quality 100.0 %
Test CRC CA9A29BE
Copy CRC CA9A29BE
Accurately ripped (confidence 2) [DC625F34]
Copy OK

Track 7

Filename E:\07. Damian Marley – Keep On Grooving.wav

Pre-gap length 0:00:00.70

Peak level 98.3 %
Track quality 100.0 %
Test CRC 1E0B9FFA
Copy CRC 1E0B9FFA
Accurately ripped (confidence 2) [E5140AAB]
Copy OK

Track 8

Filename E:\08. Damian Marley – Searching (so much bubble).wav

Pre-gap length 0:00:00.73

Peak level 98.4 %
Track quality 100.0 %
Test CRC 1B532740
Copy CRC 1B532740
Accurately ripped (confidence 2) [A3AFF26C]
Copy OK

Track 9

Filename E:\09. Damian Marley – One More Cup of Coffee.wav

Pre-gap length 0:00:00.69

Peak level 98.5 %
Track quality 100.0 %
Test CRC 814E05DF
Copy CRC 814E05DF
Accurately ripped (confidence 2) [0AB8D54A]
Copy OK

Track 10

Filename E:\10. Damian Marley – Julie.wav

Pre-gap length 0:00:00.77

Peak level 98.3 %
Track quality 100.0 %
Test CRC 5E5B134E
Copy CRC 5E5B134E
Accurately ripped (confidence 2) [4130B60C]
Copy OK

Track 11

Filename E:\11. Damian Marley – Me Name Jr. Gong.wav

Pre-gap length 0:00:00.30

Peak level 98.9 %
Track quality 100.0 %
Test CRC 25D17F1C
Copy CRC 25D17F1C
Accurately ripped (confidence 2) [1937DEFE]
Copy OK

Track 12

Filename E:\12. Damian Marley – Mr. Marley.wav

Pre-gap length 0:00:00.30

Peak level 98.2 %
Track quality 100.0 %
Test CRC 6FEA3970
Copy CRC 6FEA3970
Accurately ripped (confidence 2) [A96DA87D]
Copy OK

All tracks accurately ripped

No errors occurred

End of status report
REM GENRE Reggae 
REM DATE 1996
REM DISCID A50C290C
REM COMMENT "ExactAudioCopy v0.99pb4"
PERFORMER "Damian Marley"
TITLE "Mr. Marley"
FILE "01. Damian Marley – Trouble.wav" WAVE
TRACK 01 AUDIO
TITLE "Trouble"
PERFORMER "Damian Marley"
INDEX 01 00:00:00
TRACK 02 AUDIO
TITLE "Love and Inity"
PERFORMER "Damian Marley"
INDEX 00 05:34:03
FILE "02. Damian Marley – Love and Inity.wav" WAVE
INDEX 01 00:00:00
TRACK 03 AUDIO
TITLE "10,000 Chariots"
PERFORMER "Damian Marley"
INDEX 00 04:02:60
FILE "03. Damian Marley – 10,000 Chariots.wav" WAVE
INDEX 01 00:00:00
TRACK 04 AUDIO
TITLE "Old War Chant"
PERFORMER "Damian Marley"
INDEX 00 04:26:02
FILE "04. Damian Marley – Old War Chant.wav" WAVE
INDEX 01 00:00:00
TRACK 05 AUDIO
TITLE "Party Time"
PERFORMER "Damian Marley"
INDEX 00 04:06:65
FILE "05. Damian Marley – Party Time.wav" WAVE
INDEX 01 00:00:00
FILE "06. Damian Marley – Kingston 12.wav" WAVE
TRACK 06 AUDIO
TITLE "Kingston 12"
PERFORMER "Damian Marley"
INDEX 01 00:00:00
TRACK 07 AUDIO
TITLE "Keep On Grooving"
PERFORMER "Damian Marley"
INDEX 00 03:33:05
FILE "07. Damian Marley – Keep On Grooving.wav" WAVE
INDEX 01 00:00:00
TRACK 08 AUDIO
TITLE "Searching (so much bubble)"
PERFORMER "Damian Marley"
INDEX 00 04:34:60
FILE "08. Damian Marley – Searching (so much bubble).wav" WAVE
INDEX 01 00:00:00
TRACK 09 AUDIO
TITLE "One More Cup of Coffee"
PERFORMER "Damian Marley"
INDEX 00 04:59:05
FILE "09. Damian Marley – One More Cup of Coffee.wav" WAVE
INDEX 01 00:00:00
TRACK 10 AUDIO
TITLE "Julie"
PERFORMER "Damian Marley"
INDEX 00 04:26:05
FILE "10. Damian Marley – Julie.wav" WAVE
INDEX 01 00:00:00
TRACK 11 AUDIO
TITLE "Me Name Jr. Gong"
PERFORMER "Damian Marley"
INDEX 00 03:35:52
FILE "11. Damian Marley – Me Name Jr. Gong.wav" WAVE
INDEX 01 00:00:00
TRACK 12 AUDIO
TITLE "Mr. Marley"
PERFORMER "Damian Marley"
INDEX 00 03:50:52
FILE "12. Damian Marley – Mr. Marley.wav" WAVE
INDEX 01 00:00:00
Item: "E:\01. Damian Marley – Trouble.flac" 
MD5: D6D01B51853F95D5C38EB10D42DB7D53
CRC32: F854E44B
No problems found.

Item: "E:\02. Damian Marley – Love and Inity.flac"
MD5: 0C15392132A019FC7BCEC4B017B3C05E
CRC32: AD4DC551
No problems found.

Item: "E:\03. Damian Marley – 10,000 Chariots.flac"
MD5: 92BEF777577C83F533FCC1C9055FED83
CRC32: 525E73E7
No problems found.

Item: "E:\04. Damian Marley – Old War Chant.flac"
MD5: 97635502127418CC0BC3112E329333DB
CRC32: 0518F5E8
No problems found.

Item: "E:\05. Damian Marley – Party Time.flac"
MD5: 3E3AA06BCDA6BAFF93FEEC5402545ACE
CRC32: 17CC0566
No problems found.

Item: "E:\06. Damian Marley – Kingston 12.flac"
MD5: B7585AD6024B77ABE45D9A32B0860AEF
CRC32: CA9A29BE
No problems found.

Item: "E:\07. Damian Marley – Keep On Grooving.flac"
MD5: 9070215C195F67A210E2B2BD3E3E8EE5
CRC32: 1E0B9FFA
No problems found.

Item: "E:\08. Damian Marley – Searching (so much bubble).flac"
MD5: D0EE88F4FF6151983727A4BC01490279
CRC32: 1B532740
No problems found.

Item: "E:\09. Damian Marley – One More Cup of Coffee.flac"
MD5: 1B49A6E069098F0C79284F03040ABB9F
CRC32: 814E05DF
No problems found.

Item: "E:\10. Damian Marley – Julie.flac"
MD5: 925BE44B978D7EEFCA022992F01DA7CD
CRC32: 5E5B134E
No problems found.

Item: "E:\11. Damian Marley – Me Name Jr. Gong.flac"
MD5: B663046A035A3F68C28D022FFF026EA7
CRC32: 25D17F1C
No problems found.

Item: "E:\12. Damian Marley – Mr. Marley.flac"
MD5: D53B2A1C8C16FBB341140CD692C47C26
CRC32: 6FEA3970
No problems found.

All items decoded successfully.
Жанр: Reggae
Год выпуска альбома: 2001
Год издания данного носителя: 2001
Страна-производитель носителя: USA
Тип релиза: tracks+.cue
Аудио кодек: FLAC
Битрейт аудио: lossless
Продолжительность: 01:11:58
Треклист:
01. Educated Fools feat. Treach, Bunny Wailer, & Bounty Killer (5:17)
02. More Justice (3:35)
03. It Was Written feat. Stephen Marley, Capleton, & Drag-On (6:01)
04. Catch A Fire (4:51)
05. Still Searchin' feat. Stephen Marley & Yami Bolo (5:05)
06. She Needs My Love feat. Yami Bolo & Sabor (4:17)
07. Mi Blenda (4:41)
08. Where Is The Love feat. Eve (5:08)
09. Harder (Interlude) (0:43)
10. Born To Be Wild (4:01)
11. Give Dem Some Way feat. Daddigan (4:02)
12. HalfWay Tree (Interlude) (1:45)
13. Paradise Child feat. Mr. Cheeks & Jimmy Cozier (4:02)
14. Stuck In Between (3:43)
15. HalfWay Tree (5:25)
16. Stand A Chance feat. Treach & Yami Bolo (9:31)
Лейбл: Motown Records
Каталоговый номер: 440 014 742-2
Каталоговый номер Amazon (ASIN): B00005NWKI
Тип рипа: tracks+.cue
Уровень сжатия аудио кодеком: EAC FLAC -8

Exact Audio Copy V0.99 prebeta 4 from 23. January 2008 

EAC extraction logfile from 26. March 2012, 1:55

Damian Marley / Halfway Tree

Used drive : ASUS DRW-22B2ST Adapter: 1 ID: 0

Read mode : Secure
Utilize accurate stream : Yes
Defeat audio cache : Yes
Make use of C2 pointers : No

Read offset correction : 6
Overread into Lead-In and Lead-Out : No
Fill up missing offset samples with silence : Yes
Delete leading and trailing silent blocks : No
Null samples used in CRC calculations : Yes
Used interface : Native Win32 interface for Win NT & 2000
Gap handling : Appended to previous track

Used output format : User Defined Encoder
Selected bitrate : 128 kBit/s
Quality : High
Add ID3 tag : No
Command line compressor : C:\Program Files (x86)\Exact Audio Copy\Flac\flac.exe
Additional command line options : -8 -V -T "ARTIST=%a" -T "TITLE=%t" -T "ALBUM=%g" -T "DATE=%y" -T "TRACKNUMBER=%n" -T "GENRE=%m" -T "COMMENT=EAC FLAC -8" %s

TOC of the extracted CD

Track | Start | Length | Start sector | End sector
---------------------------------------------------------
1 | 0:00.00 | 5:17.10 | 0 | 23784
2 | 5:17.10 | 3:34.68 | 23785 | 39902
3 | 8:52.03 | 6:01.05 | 39903 | 66982
4 | 14:53.08 | 4:51.30 | 66983 | 88837
5 | 19:44.38 | 5:04.52 | 88838 | 111689
6 | 24:49.15 | 4:16.58 | 111690 | 130947
7 | 29:05.73 | 4:41.05 | 130948 | 152027
8 | 33:47.03 | 5:07.55 | 152028 | 175107
9 | 38:54.58 | 0:42.50 | 175108 | 178307
10 | 39:37.33 | 4:00.67 | 178308 | 196374
11 | 43:38.25 | 4:01.38 | 196375 | 214487
12 | 47:39.63 | 1:44.62 | 214488 | 222349
13 | 49:24.50 | 4:01.45 | 222350 | 240469
14 | 53:26.20 | 3:43.00 | 240470 | 257194
15 | 57:09.20 | 5:25.05 | 257195 | 281574
16 | 62:34.25 | 9:31.30 | 281575 | 324429

Track 1

Filename E:\01. Damian Marley – Educated Fools feat. Treach, Bunny Wailer, & Bounty Killer.wav

Pre-gap length 0:00:02.00

Peak level 100.0 %
Track quality 99.9 %
Test CRC 4EC0F547
Copy CRC 4EC0F547
Track not present in AccurateRip database
Copy OK

Track 2

Filename E:\02. Damian Marley – More Justice.wav

Peak level 100.0 %
Track quality 100.0 %
Test CRC DFC71065
Copy CRC DFC71065
Track not present in AccurateRip database
Copy OK

Track 3

Filename E:\03. Damian Marley – It Was Written feat. Stephen Marley, Capleton, & Drag-On.wav

Peak level 100.0 %
Track quality 100.0 %
Test CRC 85032D69
Copy CRC 85032D69
Track not present in AccurateRip database
Copy OK

Track 4

Filename E:\04. Damian Marley – Catch A Fire.wav

Peak level 100.0 %
Track quality 100.0 %
Test CRC 423F92F3
Copy CRC 423F92F3
Track not present in AccurateRip database
Copy OK

Track 5

Filename E:\05. Damian Marley – Still Searchin' feat. Stephen Marley & Yami Bolo.wav

Peak level 100.0 %
Track quality 100.0 %
Test CRC AACAEC67
Copy CRC AACAEC67
Track not present in AccurateRip database
Copy OK

Track 6

Filename E:\06. Damian Marley – She Needs My Love feat. Yami Bolo & Sabor.wav

Peak level 100.0 %
Track quality 100.0 %
Test CRC 46878773
Copy CRC 46878773
Track not present in AccurateRip database
Copy OK

Track 7

Filename E:\07. Damian Marley – Mi Blenda.wav

Peak level 100.0 %
Track quality 100.0 %
Test CRC 9D89B1FC
Copy CRC 9D89B1FC
Track not present in AccurateRip database
Copy OK

Track 8

Filename E:\08. Damian Marley – Where Is The Love feat. Eve.wav

Peak level 100.0 %
Track quality 100.0 %
Test CRC 10875E00
Copy CRC 10875E00
Track not present in AccurateRip database
Copy OK

Track 9

Filename E:\09. Damian Marley – Harder (Interlude).wav

Peak level 83.6 %
Track quality 100.0 %
Test CRC 2FBE5965
Copy CRC 2FBE5965
Track not present in AccurateRip database
Copy OK

Track 10

Filename E:\10. Damian Marley – Born To Be Wild.wav

Peak level 100.0 %
Track quality 100.0 %
Test CRC 8B6D66DC
Copy CRC 8B6D66DC
Track not present in AccurateRip database
Copy OK

Track 11

Filename E:\11. Damian Marley – Give Dem Some Way feat. Daddigan.wav

Peak level 100.0 %
Track quality 100.0 %
Test CRC 7A0B94C1
Copy CRC 7A0B94C1
Track not present in AccurateRip database
Copy OK

Track 12

Filename E:\12. Damian Marley – HalfWay Tree (Interlude).wav

Peak level 95.6 %
Track quality 100.0 %
Test CRC E48EE343
Copy CRC E48EE343
Track not present in AccurateRip database
Copy OK

Track 13

Filename E:\13. Damian Marley – Paradise Child feat. Mr. Cheeks & Jimmy Cozier.wav

Peak level 100.0 %
Track quality 100.0 %
Test CRC 2A7A5B99
Copy CRC 2A7A5B99
Track not present in AccurateRip database
Copy OK

Track 14

Filename E:\14. Damian Marley – Stuck In Between.wav

Peak level 100.0 %
Track quality 100.0 %
Test CRC 6596E387
Copy CRC 6596E387
Track not present in AccurateRip database
Copy OK

Track 15

Filename E:\15. Damian Marley – HalfWay Tree.wav

Peak level 100.0 %
Track quality 99.9 %
Test CRC C11B2ACF
Copy CRC C11B2ACF
Track not present in AccurateRip database
Copy OK

Track 16

Filename E:\16. Damian Marley – Stand A Chance feat. Treach & Yami Bolo.wav

Peak level 100.0 %
Track quality 100.0 %
Test CRC 9D232A87
Copy CRC 9D232A87
Track not present in AccurateRip database
Copy OK

None of the tracks are present in the AccurateRip database

No errors occurred

End of status report
REM GENRE Reggae 
REM DATE 2001
REM DISCID F210E510
REM COMMENT "ExactAudioCopy v0.99pb4"
PERFORMER "Damian Marley"
TITLE "Halfway Tree"
FILE "01. Damian Marley – Educated Fools feat. Treach, Bunny Wailer, & Bounty Killer.wav" WAVE
TRACK 01 AUDIO
TITLE "Educated Fools feat. Treach, Bunny Wailer, & Bounty Killer"
PERFORMER "Damian Marley"
INDEX 01 00:00:00
FILE "02. Damian Marley – More Justice.wav" WAVE
TRACK 02 AUDIO
TITLE "More Justice"
PERFORMER "Damian Marley"
INDEX 01 00:00:00
FILE "03. Damian Marley – It Was Written feat. Stephen Marley, Capleton, & Drag-On.wav" WAVE
TRACK 03 AUDIO
TITLE "It Was Written feat. Stephen Marley, Capleton, & Drag-On"
PERFORMER "Damian Marley"
INDEX 01 00:00:00
FILE "04. Damian Marley – Catch A Fire.wav" WAVE
TRACK 04 AUDIO
TITLE "Catch A Fire"
PERFORMER "Damian Marley"
INDEX 01 00:00:00
FILE "05. Damian Marley – Still Searchin' feat. Stephen Marley & Yami Bolo.wav" WAVE
TRACK 05 AUDIO
TITLE "Still Searchin' feat. Stephen Marley & Yami Bolo"
PERFORMER "Damian Marley"
INDEX 01 00:00:00
FILE "06. Damian Marley – She Needs My Love feat. Yami Bolo & Sabor.wav" WAVE
TRACK 06 AUDIO
TITLE "She Needs My Love feat. Yami Bolo & Sabor"
PERFORMER "Damian Marley"
INDEX 01 00:00:00
FILE "07. Damian Marley – Mi Blenda.wav" WAVE
TRACK 07 AUDIO
TITLE "Mi Blenda"
PERFORMER "Damian Marley"
INDEX 01 00:00:00
FILE "08. Damian Marley – Where Is The Love feat. Eve.wav" WAVE
TRACK 08 AUDIO
TITLE "Where Is The Love feat. Eve"
PERFORMER "Damian Marley"
INDEX 01 00:00:00
FILE "09. Damian Marley – Harder (Interlude).wav" WAVE
TRACK 09 AUDIO
TITLE "Harder (Interlude)"
PERFORMER "Damian Marley"
INDEX 01 00:00:00
FILE "10. Damian Marley – Born To Be Wild.wav" WAVE
TRACK 10 AUDIO
TITLE "Born To Be Wild"
PERFORMER "Damian Marley"
INDEX 01 00:00:00
FILE "11. Damian Marley – Give Dem Some Way feat. Daddigan.wav" WAVE
TRACK 11 AUDIO
TITLE "Give Dem Some Way feat. Daddigan"
PERFORMER "Damian Marley"
INDEX 01 00:00:00
FILE "12. Damian Marley – HalfWay Tree (Interlude).wav" WAVE
TRACK 12 AUDIO
TITLE "HalfWay Tree (Interlude)"
PERFORMER "Damian Marley"
INDEX 01 00:00:00
FILE "13. Damian Marley – Paradise Child feat. Mr. Cheeks & Jimmy Cozier.wav" WAVE
TRACK 13 AUDIO
TITLE "Paradise Child feat. Mr. Cheeks & Jimmy Cozier"
PERFORMER "Damian Marley"
INDEX 01 00:00:00
FILE "14. Damian Marley – Stuck In Between.wav" WAVE
TRACK 14 AUDIO
TITLE "Stuck In Between"
PERFORMER "Damian Marley"
INDEX 01 00:00:00
FILE "15. Damian Marley – HalfWay Tree.wav" WAVE
TRACK 15 AUDIO
TITLE "HalfWay Tree"
PERFORMER "Damian Marley"
INDEX 01 00:00:00
FILE "16. Damian Marley – Stand A Chance feat. Treach & Yami Bolo.wav" WAVE
TRACK 16 AUDIO
TITLE "Stand A Chance feat. Treach & Yami Bolo"
PERFORMER "Damian Marley"
INDEX 01 00:00:00
Item: "E:\01. Damian Marley – Educated Fools feat. Treach, Bunny Wailer, & Bounty Killer.flac" 
MD5: 6808E3B06EB03FBFF7DDC77053E3CDE4
CRC32: 4EC0F547
No problems found.

Item: "E:\02. Damian Marley – More Justice.flac"
MD5: E23FBCB0E0F0DD93DB848D7DBD672732
CRC32: DFC71065
No problems found.

Item: "E:\03. Damian Marley – It Was Written feat. Stephen Marley, Capleton, & Drag-On.flac"
MD5: 2606ACFCBC5C2C94FEE5FA44DDE71212
CRC32: 85032D69
No problems found.

Item: "E:\04. Damian Marley – Catch A Fire.flac"
MD5: E316A6BE643F848D904B99E72DB35121
CRC32: 423F92F3
No problems found.

Item: "E:\05. Damian Marley – Still Searchin' feat. Stephen Marley & Yami Bolo.flac"
MD5: E849461FB6ACDE761B732232E6BC1467
CRC32: AACAEC67
No problems found.

Item: "E:\06. Damian Marley – She Needs My Love feat. Yami Bolo & Sabor.flac"
MD5: 9B6BFC5F3406B1D103AB64859540B195
CRC32: 46878773
No problems found.

Item: "E:\07. Damian Marley – Mi Blenda.flac"
MD5: 980218AA43A0FE7F89E1FEC25142F477
CRC32: 9D89B1FC
No problems found.

Item: "E:\08. Damian Marley – Where Is The Love feat. Eve.flac"
MD5: 74B062879A73FA53CB7B7ACD5944BAFB
CRC32: 10875E00
No problems found.

Item: "E:\09. Damian Marley – Harder (Interlude).flac"
MD5: 747FCFFACFD09C15CB03E2DCD00B96E0
CRC32: 2FBE5965
No problems found.

Item: "E:\10. Damian Marley – Born To Be Wild.flac"
MD5: 9AD9B69B6B22C9190399FA7948EBF842
CRC32: 8B6D66DC
No problems found.

Item: "E:\11. Damian Marley – Give Dem Some Way feat. Daddigan.flac"
MD5: F2CC8F3A09D085B1334FF23B743D7A3D
CRC32: 7A0B94C1
No problems found.

Item: "E:\12. Damian Marley – HalfWay Tree (Interlude).flac"
MD5: E65F697599D5ACC9C0BC4A61881ACBE3
CRC32: E48EE343
No problems found.

Item: "E:\13. Damian Marley – Paradise Child feat. Mr. Cheeks & Jimmy Cozier.flac"
MD5: FCB97A8334C1AB5BB41701BA67CE53CE
CRC32: 2A7A5B99
No problems found.

Item: "E:\14. Damian Marley – Stuck In Between.flac"
MD5: 4CD0A228880B2C733E089E5B3D4F7A31
CRC32: 6596E387
No problems found.

Item: "E:\15. Damian Marley – HalfWay Tree.flac"
MD5: E1FD5D4AA4AE035F5FF073242CA2C500
CRC32: C11B2ACF
No problems found.

Item: "E:\16. Damian Marley – Stand A Chance feat. Treach & Yami Bolo.flac"
MD5: A7134E52764BDCD4244E0F1A2590F3AB
CRC32: 9D232A87
No problems found.

All items decoded successfully.
Жанр: Reggae
Год выпуска альбома: 2005
Год издания данного носителя: 2005
Страна-производитель носителя: USA
Тип релиза: tracks+.cue
Аудио кодек: FLAC
Битрейт аудио: lossless
Продолжительность: 01:02:54
Треклист:
01. Confrontation (5:29)
02. There for You (4:41)
03. Welcome to Jamrock (3:33)
04. The Master Has Come Back (4:41)
05. All Night [feat. Stephen Marley] (3:30)
06. Beautiful [feat. Bobby Brown] (4:48)
07. Pimpa's Paradise [feat. Stephen Marley & Black Thought] (5:04)
08. Move! (3:44)
09. For the Babies [feat. Stephen Marley] (4:54)
10. Hey Girl [feat. Stephen Marley & Rovleta Fraser] (4:16)
11. Road to Zion [feat. Nas] (5:17)
12. We're Gonna Make It (4:20)
13. In 2 Deep (4:45)
14. Khaki Suit [feat. Bounty Killer & Eek-A-Mouse] (3:57)
Лейбл: Universal Records, a Division of UMG Recordings
Каталоговый номер: 602498851258
Каталоговый номер Amazon (ASIN): B000ASATWQ
Тип рипа: tracks+.cue
Уровень сжатия аудио кодеком: EAC FLAC -8

Exact Audio Copy V0.99 prebeta 4 from 23. January 2008 

EAC extraction logfile from 26. March 2012, 1:17

Damian Marley / Welcome to Jamrock

Used drive : ASUS DRW-22B2ST Adapter: 1 ID: 0

Read mode : Secure
Utilize accurate stream : Yes
Defeat audio cache : Yes
Make use of C2 pointers : No

Read offset correction : 6
Overread into Lead-In and Lead-Out : No
Fill up missing offset samples with silence : Yes
Delete leading and trailing silent blocks : No
Null samples used in CRC calculations : Yes
Used interface : Native Win32 interface for Win NT & 2000
Gap handling : Appended to previous track

Used output format : User Defined Encoder
Selected bitrate : 128 kBit/s
Quality : High
Add ID3 tag : No
Command line compressor : C:\Program Files (x86)\Exact Audio Copy\Flac\flac.exe
Additional command line options : -8 -V -T "ARTIST=%a" -T "TITLE=%t" -T "ALBUM=%g" -T "DATE=%y" -T "TRACKNUMBER=%n" -T "GENRE=%m" -T "COMMENT=EAC FLAC -8" %s

TOC of the extracted CD

Track | Start | Length | Start sector | End sector
---------------------------------------------------------
1 | 0:00.00 | 5:29.08 | 0 | 24682
2 | 5:29.08 | 4:41.26 | 24683 | 45783
3 | 10:10.34 | 3:33.15 | 45784 | 61773
4 | 13:43.49 | 4:40.65 | 61774 | 82838
5 | 18:24.39 | 3:30.22 | 82839 | 98610
6 | 21:54.61 | 4:47.59 | 98611 | 120194
7 | 26:42.45 | 5:04.14 | 120195 | 143008
8 | 31:46.59 | 3:44.24 | 143009 | 159832
9 | 35:31.08 | 4:53.39 | 159833 | 181846
10 | 40:24.47 | 4:15.44 | 181847 | 201015
11 | 44:40.16 | 5:17.25 | 201016 | 224815
12 | 49:57.41 | 4:20.37 | 224816 | 244352
13 | 54:18.03 | 4:44.48 | 244353 | 265700
14 | 59:02.51 | 3:57.30 | 265701 | 283505

Track 1

Filename E:\01. Damian Marley – Confrontation.wav

Pre-gap length 0:00:02.00

Peak level 100.0 %
Track quality 100.0 %
Test CRC F98F45B0
Copy CRC F98F45B0
Accurately ripped (confidence 51) [D51367B4]
Copy OK

Track 2

Filename E:\02. Damian Marley – There for You.wav

Peak level 100.0 %
Track quality 100.0 %
Test CRC 7B3EA051
Copy CRC 7B3EA051
Accurately ripped (confidence 51) [A6400C2F]
Copy OK

Track 3

Filename E:\03. Damian Marley – Welcome to Jamrock.wav

Peak level 100.0 %
Track quality 99.9 %
Test CRC 258B15C9
Copy CRC 258B15C9
Accurately ripped (confidence 52) [E4A9D4BC]
Copy OK

Track 4

Filename E:\04. Damian Marley – The Master Has Come Back.wav

Peak level 100.0 %
Track quality 100.0 %
Test CRC 15BA736A
Copy CRC 15BA736A
Accurately ripped (confidence 50) [BCCCBB01]
Copy OK

Track 5

Filename E:\05. Damian Marley – All Night [feat. Stephen Marley].wav

Peak level 100.0 %
Track quality 100.0 %
Test CRC C3AF85F9
Copy CRC C3AF85F9
Accurately ripped (confidence 50) [8334965E]
Copy OK

Track 6

Filename E:\06. Damian Marley – Beautiful [feat. Bobby Brown].wav

Peak level 100.0 %
Track quality 100.0 %
Test CRC C21CEF65
Copy CRC C21CEF65
Accurately ripped (confidence 50) [6A804306]
Copy OK

Track 7

Filename E:\07. Damian Marley – Pimpa's Paradise [feat. Stephen Marley & Black Thought].wav

Peak level 100.0 %
Track quality 99.9 %
Test CRC A10AFBCA
Copy CRC A10AFBCA
Accurately ripped (confidence 50) [077ECC51]
Copy OK

Track 8

Filename E:\08. Damian Marley – Move!.wav

Peak level 100.0 %
Track quality 100.0 %
Test CRC 9E5A707D
Copy CRC 9E5A707D
Accurately ripped (confidence 50) [E36CD946]
Copy OK

Track 9

Filename E:\09. Damian Marley – For the Babies [feat. Stephen Marley].wav

Peak level 100.0 %
Track quality 99.9 %
Test CRC 30366DAD
Copy CRC 30366DAD
Accurately ripped (confidence 50) [BDA02D3D]
Copy OK

Track 10

Filename E:\10. Damian Marley – Hey Girl [feat. Stephen Marley & Rovleta Fraser].wav

Peak level 100.0 %
Track quality 100.0 %
Test CRC 18687B62
Copy CRC 18687B62
Accurately ripped (confidence 49) [113EC811]
Copy OK

Track 11

Filename E:\11. Damian Marley – Road to Zion [feat. Nas].wav

Peak level 99.9 %
Track quality 100.0 %
Test CRC 7A89C6E7
Copy CRC 7A89C6E7
Accurately ripped (confidence 49) [053160BD]
Copy OK

Track 12

Filename E:\12. Damian Marley – We're Gonna Make It.wav

Peak level 99.9 %
Track quality 100.0 %
Test CRC D2C3B323
Copy CRC D2C3B323
Accurately ripped (confidence 47) [5E24FE3D]
Copy OK

Track 13

Filename E:\13. Damian Marley – In 2 Deep.wav

Peak level 100.0 %
Track quality 100.0 %
Test CRC 8902CC25
Copy CRC 8902CC25
Accurately ripped (confidence 48) [43EE4A26]
Copy OK

Track 14

Filename E:\14. Damian Marley – Khaki Suit [feat. Bounty Killer & Eek-A-Mouse].wav

Peak level 100.0 %
Track quality 100.0 %
Test CRC B9AACC80
Copy CRC B9AACC80
Accurately ripped (confidence 45) [92CC8792]
Copy OK

All tracks accurately ripped

No errors occurred

End of status report
REM GENRE Reggae 
REM DATE 2005
REM DISCID B20EC40E
REM COMMENT "ExactAudioCopy v0.99pb4"
PERFORMER "Damian Marley"
TITLE "Welcome to Jamrock"
FILE "01. Damian Marley – Confrontation.wav" WAVE
TRACK 01 AUDIO
TITLE "Confrontation"
PERFORMER "Damian Marley"
INDEX 01 00:00:00
FILE "02. Damian Marley – There for You.wav" WAVE
TRACK 02 AUDIO
TITLE "There for You"
PERFORMER "Damian Marley"
INDEX 01 00:00:00
FILE "03. Damian Marley – Welcome to Jamrock.wav" WAVE
TRACK 03 AUDIO
TITLE "Welcome to Jamrock"
PERFORMER "Damian Marley"
INDEX 01 00:00:00
FILE "04. Damian Marley – The Master Has Come Back.wav" WAVE
TRACK 04 AUDIO
TITLE "The Master Has Come Back"
PERFORMER "Damian Marley"
INDEX 01 00:00:00
FILE "05. Damian Marley – All Night [feat. Stephen Marley].wav" WAVE
TRACK 05 AUDIO
TITLE "All Night [feat. Stephen Marley]"
PERFORMER "Damian Marley"
INDEX 01 00:00:00
FILE "06. Damian Marley – Beautiful [feat. Bobby Brown].wav" WAVE
TRACK 06 AUDIO
TITLE "Beautiful [feat. Bobby Brown]"
PERFORMER "Damian Marley"
INDEX 01 00:00:00
FILE "07. Damian Marley – Pimpa's Paradise [feat. Stephen Marley & Black Thought].wav" WAVE
TRACK 07 AUDIO
TITLE "Pimpa's Paradise [feat. Stephen Marley & Black Thought]"
PERFORMER "Damian Marley"
INDEX 01 00:00:00
FILE "08. Damian Marley – Move!.wav" WAVE
TRACK 08 AUDIO
TITLE "Move!"
PERFORMER "Damian Marley"
INDEX 01 00:00:00
FILE "09. Damian Marley – For the Babies [feat. Stephen Marley].wav" WAVE
TRACK 09 AUDIO
TITLE "For the Babies [feat. Stephen Marley]"
PERFORMER "Damian Marley"
INDEX 01 00:00:00
FILE "10. Damian Marley – Hey Girl [feat. Stephen Marley & Rovleta Fraser].wav" WAVE
TRACK 10 AUDIO
TITLE "Hey Girl [feat. Stephen Marley & Rovleta Fraser]"
PERFORMER "Damian Marley"
INDEX 01 00:00:00
FILE "11. Damian Marley – Road to Zion [feat. Nas].wav" WAVE
TRACK 11 AUDIO
TITLE "Road to Zion [feat. Nas]"
PERFORMER "Damian Marley"
INDEX 01 00:00:00
FILE "12. Damian Marley – We're Gonna Make It.wav" WAVE
TRACK 12 AUDIO
TITLE "We're Gonna Make It"
PERFORMER "Damian Marley"
INDEX 01 00:00:00
FILE "13. Damian Marley – In 2 Deep.wav" WAVE
TRACK 13 AUDIO
TITLE "In 2 Deep"
PERFORMER "Damian Marley"
INDEX 01 00:00:00
FILE "14. Damian Marley – Khaki Suit [feat. Bounty Killer & Eek-A-Mouse].wav" WAVE
TRACK 14 AUDIO
TITLE "Khaki Suit [feat. Bounty Killer & Eek-A-Mouse]"
PERFORMER "Damian Marley"
INDEX 01 00:00:00
Item: "E:\01. Damian Marley – Confrontation.flac" 
MD5: 298B09C973CFE1C7C0B8D2206928D401
CRC32: F98F45B0
No problems found.

Item: "E:\02. Damian Marley – There for You.flac"
MD5: E61835078B6EBE5753EF105C098AD98B
CRC32: 7B3EA051
No problems found.

Item: "E:\03. Damian Marley – Welcome to Jamrock.flac"
MD5: 6E22CBFFD9D4FB556541391700764239
CRC32: 258B15C9
No problems found.

Item: "E:\04. Damian Marley – The Master Has Come Back.flac"
MD5: 1EBC776FC12972A12097C76EB2B92F8C
CRC32: 15BA736A
No problems found.

Item: "E:\05. Damian Marley – All Night [feat. Stephen Marley].flac"
MD5: 432A72BFE4363235194CBE777FF88F85
CRC32: C3AF85F9
No problems found.

Item: "E:\06. Damian Marley – Beautiful [feat. Bobby Brown].flac"
MD5: BE4BD3B312944CC426133BAF0675E5AE
CRC32: C21CEF65
No problems found.

Item: "E:\07. Damian Marley – Pimpa's Paradise [feat. Stephen Marley & Black Thought].flac"
MD5: EE8228F8FFE59D97E32A908C6F85FA5D
CRC32: A10AFBCA
No problems found.

Item: "E:\08. Damian Marley – Move!.flac"
MD5: FF5CD96BFA14FF20C195ED2B00A05026
CRC32: 9E5A707D
No problems found.

Item: "E:\09. Damian Marley – For the Babies [feat. Stephen Marley].flac"
MD5: 04E3EF159A40E38505F78453D291B1C2
CRC32: 30366DAD
No problems found.

Item: "E:\10. Damian Marley – Hey Girl [feat. Stephen Marley & Rovleta Fraser].flac"
MD5: FEB7A083DAF4EF5556556C0958C05B45
CRC32: 18687B62
No problems found.

Item: "E:\11. Damian Marley – Road to Zion [feat. Nas].flac"
MD5: 474E00692FDFFA1E2C9ACF9FEBD479A0
CRC32: 7A89C6E7
No problems found.

Item: "E:\12. Damian Marley – We're Gonna Make It.flac"
MD5: 7D56E2A12FBE93A0B508167D889AA8FB
CRC32: D2C3B323
No problems found.

Item: "E:\13. Damian Marley – In 2 Deep.flac"
MD5: 6AD4EB4AA8CDCBB984CE492868AC85F2
CRC32: 8902CC25
No problems found.

Item: "E:\14. Damian Marley – Khaki Suit [feat. Bounty Killer & Eek-A-Mouse].flac"
MD5: 109EF40CE69079B258BEF9FF336720C9
CRC32: B9AACC80
No problems found.

All items decoded successfully.
Жанр: Reggae / Hip-Hop
Год выпуска альбома: 2010
Год издания данного носителя: 2010
Страна-производитель носителя: USA
Тип релиза: tracks+.cue
Аудио кодек: FLAC
Битрейт аудио: lossless
Продолжительность: 01:01:48
Треклист:
01. As We Enter (2:28)
02. Tribes At War (feat. K'Naan) (4:30)
03. Strong Will Continue (6:01)
04. Leaders (feat. Stephen Marley) (4:20)
05. Friends (4:49)
06. Count Your Blessings (4:24)
07. Dispear (5:53)
08. Land Of Promise (feat. Dennis Brown) (3:54)
09. In His Own Words (feat. Stephen Marley) (5:00)
10. Nah Mean (4:09)
11. Patience (5:46)
12. My Generation (feat. Lil Wayne & Joss Stone) (4:00)
13. Africa Must Wake Up (feat. K'Naan) (6:40)
Лейбл: Universal Republic Records
Каталоговый номер: B0014136-02
Каталоговый номер Amazon (ASIN): B0039ZF8D2
Тип рипа: tracks+.cue
Уровень сжатия аудио кодеком: EAC FLAC -8

Exact Audio Copy V0.99 prebeta 4 from 23. January 2008 

EAC extraction logfile from 26. March 2012, 4:30

Nas & Damian Marley / Distant Relatives

Used drive : ASUS DRW-22B2ST Adapter: 1 ID: 0

Read mode : Secure
Utilize accurate stream : Yes
Defeat audio cache : Yes
Make use of C2 pointers : No

Read offset correction : 6
Overread into Lead-In and Lead-Out : No
Fill up missing offset samples with silence : Yes
Delete leading and trailing silent blocks : No
Null samples used in CRC calculations : Yes
Used interface : Native Win32 interface for Win NT & 2000
Gap handling : Appended to previous track

Used output format : User Defined Encoder
Selected bitrate : 128 kBit/s
Quality : High
Add ID3 tag : No
Command line compressor : C:\Program Files (x86)\Exact Audio Copy\Flac\flac.exe
Additional command line options : -8 -V -T "ARTIST=%a" -T "TITLE=%t" -T "ALBUM=%g" -T "DATE=%y" -T "TRACKNUMBER=%n" -T "GENRE=%m" -T "COMMENT=EAC FLAC -8" %s

TOC of the extracted CD

Track | Start | Length | Start sector | End sector
---------------------------------------------------------
1 | 0:00.00 | 2:28.27 | 0 | 11126
2 | 2:28.27 | 4:30.02 | 11127 | 31378
3 | 6:58.29 | 6:01.35 | 31379 | 58488
4 | 12:59.64 | 4:19.46 | 58489 | 77959
5 | 17:19.35 | 4:49.10 | 77960 | 99644
6 | 22:08.45 | 4:23.71 | 99645 | 119440
7 | 26:32.41 | 5:53.06 | 119441 | 145921
8 | 32:25.47 | 3:53.40 | 145922 | 163436
9 | 36:19.12 | 5:00.09 | 163437 | 185945
10 | 41:19.21 | 4:08.65 | 185946 | 204610
11 | 45:28.11 | 5:45.58 | 204611 | 230543
12 | 51:13.69 | 3:59.70 | 230544 | 248538
13 | 55:13.64 | 6:40.37 | 248539 | 278575

Track 1

Filename E:\01. Nas & Damian Marley – As We Enter.wav

Pre-gap length 0:00:02.00

Peak level 99.8 %
Track quality 100.0 %
Test CRC 3B924691
Copy CRC 3B924691
Accurately ripped (confidence 42) [ED770C18]
Copy OK

Track 2

Filename E:\02. Nas & Damian Marley – Tribes At War (feat. K'Naan).wav

Pre-gap length 0:00:00.45

Peak level 99.8 %
Track quality 100.0 %
Test CRC 0A8E436D
Copy CRC 0A8E436D
Accurately ripped (confidence 43) [CC6BB05B]
Copy OK

Track 3

Filename E:\03. Nas & Damian Marley – Strong Will Continue.wav

Peak level 99.8 %
Track quality 100.0 %
Test CRC 60B9A469
Copy CRC 60B9A469
Accurately ripped (confidence 43) [5FA8B3E9]
Copy OK

Track 4

Filename E:\04. Nas & Damian Marley – Leaders (feat. Stephen Marley).wav

Peak level 99.7 %
Track quality 100.0 %
Test CRC A0A4E5AB
Copy CRC A0A4E5AB
Accurately ripped (confidence 43) [08D59AE2]
Copy OK

Track 5

Filename E:\05. Nas & Damian Marley – Friends.wav

Peak level 99.8 %
Track quality 100.0 %
Test CRC 018D17EE
Copy CRC 018D17EE
Accurately ripped (confidence 43) [1D7953B5]
Copy OK

Track 6

Filename E:\06. Nas & Damian Marley – Count Your Blessings.wav

Peak level 99.8 %
Track quality 100.0 %
Test CRC ED4BA5C8
Copy CRC ED4BA5C8
Accurately ripped (confidence 42) [0065EC61]
Copy OK

Track 7

Filename E:\07. Nas & Damian Marley – Dispear.wav

Peak level 99.8 %
Track quality 100.0 %
Test CRC 47EB3A21
Copy CRC 47EB3A21
Accurately ripped (confidence 42) [C44139E8]
Copy OK

Track 8

Filename E:\08. Nas & Damian Marley – Land Of Promise (feat. Dennis Brown).wav

Peak level 99.8 %
Track quality 100.0 %
Test CRC 6819B086
Copy CRC 6819B086
Accurately ripped (confidence 42) [77907912]
Copy OK

Track 9

Filename E:\09. Nas & Damian Marley – In His Own Words (feat. Stephen Marley).wav

Peak level 99.8 %
Track quality 100.0 %
Test CRC 62DD6139
Copy CRC 62DD6139
Accurately ripped (confidence 42) [2D3D5086]
Copy OK

Track 10

Filename E:\10. Nas & Damian Marley – Nah Mean.wav

Pre-gap length 0:00:00.81

Peak level 100.0 %
Track quality 100.0 %
Test CRC C877DA01
Copy CRC C877DA01
Accurately ripped (confidence 42) [4899CC04]
Copy OK

Track 11

Filename E:\11. Nas & Damian Marley – Patience.wav

Pre-gap length 0:00:01.81

Peak level 99.8 %
Track quality 100.0 %
Test CRC 2816E00C
Copy CRC 2816E00C
Accurately ripped (confidence 42) [4B07A7C3]
Copy OK

Track 12

Filename E:\12. Nas & Damian Marley – My Generation (feat. Lil Wayne & Joss Stone).wav

Pre-gap length 0:00:00.68

Peak level 99.8 %
Track quality 100.0 %
Test CRC CF3D7E35
Copy CRC CF3D7E35
Accurately ripped (confidence 41) [30D58B2C]
Copy OK

Track 13

Filename E:\13. Nas & Damian Marley – Africa Must Wake Up (feat. K'Naan).wav

Peak level 99.8 %
Track quality 99.9 %
Test CRC 0E51A0B4
Copy CRC 0E51A0B4
Accurately ripped (confidence 42) [D68789E5]
Copy OK

All tracks accurately ripped

No errors occurred

End of status report
REM GENRE Hip-Hop 
REM DATE 2010
REM DISCID 950E820D
REM COMMENT "ExactAudioCopy v0.99pb4"
PERFORMER "Nas & Damian Marley"
TITLE "Distant Relatives"
FILE "01. Nas & Damian Marley – As We Enter.wav" WAVE
TRACK 01 AUDIO
TITLE "As We Enter"
PERFORMER "Nas & Damian Marley"
FLAGS DCP
INDEX 01 00:00:00
TRACK 02 AUDIO
TITLE "Tribes At War (feat. K'Naan)"
PERFORMER "Nas & Damian Marley"
FLAGS DCP
INDEX 00 02:27:68
FILE "02. Nas & Damian Marley – Tribes At War (feat. K'Naan).wav" WAVE
INDEX 01 00:00:00
FILE "03. Nas & Damian Marley – Strong Will Continue.wav" WAVE
TRACK 03 AUDIO
TITLE "Strong Will Continue"
PERFORMER "Nas & Damian Marley"
FLAGS DCP
INDEX 01 00:00:00
FILE "04. Nas & Damian Marley – Leaders (feat. Stephen Marley).wav" WAVE
TRACK 04 AUDIO
TITLE "Leaders (feat. Stephen Marley)"
PERFORMER "Nas & Damian Marley"
FLAGS DCP
INDEX 01 00:00:00
FILE "05. Nas & Damian Marley – Friends.wav" WAVE
TRACK 05 AUDIO
TITLE "Friends"
PERFORMER "Nas & Damian Marley"
FLAGS DCP
INDEX 01 00:00:00
FILE "06. Nas & Damian Marley – Count Your Blessings.wav" WAVE
TRACK 06 AUDIO
TITLE "Count Your Blessings"
PERFORMER "Nas & Damian Marley"
FLAGS DCP
INDEX 01 00:00:00
FILE "07. Nas & Damian Marley – Dispear.wav" WAVE
TRACK 07 AUDIO
TITLE "Dispear"
PERFORMER "Nas & Damian Marley"
FLAGS DCP
INDEX 01 00:00:00
FILE "08. Nas & Damian Marley – Land Of Promise (feat. Dennis Brown).wav" WAVE
TRACK 08 AUDIO
TITLE "Land Of Promise (feat. Dennis Brown)"
PERFORMER "Nas & Damian Marley"
FLAGS DCP
INDEX 01 00:00:00
FILE "09. Nas & Damian Marley – In His Own Words (feat. Stephen Marley).wav" WAVE
TRACK 09 AUDIO
TITLE "In His Own Words (feat. Stephen Marley)"
PERFORMER "Nas & Damian Marley"
FLAGS DCP
INDEX 01 00:00:00
TRACK 10 AUDIO
TITLE "Nah Mean"
PERFORMER "Nas & Damian Marley"
FLAGS DCP
INDEX 00 04:59:23
FILE "10. Nas & Damian Marley – Nah Mean.wav" WAVE
INDEX 01 00:00:00
TRACK 11 AUDIO
TITLE "Patience"
PERFORMER "Nas & Damian Marley"
FLAGS DCP
INDEX 00 04:07:04
FILE "11. Nas & Damian Marley – Patience.wav" WAVE
INDEX 01 00:00:00
TRACK 12 AUDIO
TITLE "My Generation (feat. Lil Wayne & Joss Stone)"
PERFORMER "Nas & Damian Marley"
FLAGS DCP
INDEX 00 05:45:07
FILE "12. Nas & Damian Marley – My Generation (feat. Lil Wayne & Joss Stone).wav" WAVE
INDEX 01 00:00:00
FILE "13. Nas & Damian Marley – Africa Must Wake Up (feat. K'Naan).wav" WAVE
TRACK 13 AUDIO
TITLE "Africa Must Wake Up (feat. K'Naan)"
PERFORMER "Nas & Damian Marley"
FLAGS DCP
INDEX 01 00:00:00
Item: "E:\01. Nas & Damian Marley – As We Enter.flac" 
MD5: F85DEFA02EACA46378CCF07F280C771C
CRC32: 3B924691
No problems found.

Item: "E:\02. Nas & Damian Marley – Tribes At War (feat. K'Naan).flac"
MD5: D4D597BB0254517DD31ED912B9C8BA30
CRC32: 0A8E436D
No problems found.

Item: "E:\03. Nas & Damian Marley – Strong Will Continue.flac"
MD5: E001E5477BD9F7AD168DD47F1B83790E
CRC32: 60B9A469
No problems found.

Item: "E:\04. Nas & Damian Marley – Leaders (feat. Stephen Marley).flac"
MD5: 517A786EECD15FC0D551C7C1E57597E9
CRC32: A0A4E5AB
No problems found.

Item: "E:\05. Nas & Damian Marley – Friends.flac"
MD5: 29069BED5074A883427AC5EEE7650CE8
CRC32: 018D17EE
No problems found.

Item: "E:\06. Nas & Damian Marley – Count Your Blessings.flac"
MD5: 3C5A54E38DE5D0E09007E732D7DDDC20
CRC32: ED4BA5C8
No problems found.

Item: "E:\07. Nas & Damian Marley – Dispear.flac"
MD5: 0D5CBB19CF60C80A8ABBF359D6CDE4FE
CRC32: 47EB3A21
No problems found.

Item: "E:\08. Nas & Damian Marley – Land Of Promise (feat. Dennis Brown).flac"
MD5: 2C35B0481EC5F311485F8AC7680DB9D8
CRC32: 6819B086
No problems found.

Item: "E:\09. Nas & Damian Marley – In His Own Words (feat. Stephen Marley).flac"
MD5: 4CC894AB214B0F320A40B15FBBD67856
CRC32: 62DD6139
No problems found.

Item: "E:\10. Nas & Damian Marley – Nah Mean.flac"
MD5: 9C7BC5F2F5BD70FC05D181641FEF6A44
CRC32: C877DA01
No problems found.

Item: "E:\11. Nas & Damian Marley – Patience.flac"
MD5: 77DA72F8D17745A034E315AFE0A5E6B5
CRC32: 2816E00C
No problems found.

Item: "E:\12. Nas & Damian Marley – My Generation (feat. Lil Wayne & Joss Stone).flac"
MD5: D5EE4D5F95CE304C0DA53F7894CAC78B
CRC32: CF3D7E35
No problems found.

Item: "E:\13. Nas & Damian Marley – Africa Must Wake Up (feat. K'Naan).flac"
MD5: 4EA822E562940A806D9550860EDF2697
CRC32: 0E51A0B4
No problems found.

All items decoded successfully.
Рип снят с оригинальных импортных дисков из США.
info [Профиль]  [ЛС] 

white man

Пол: Пол:Муж

Стаж: 11 лет

Сообщений: 2

Россия
Рейтинг

post 26-Мар-2012 13:18 (спустя 10 часов) [-]0[+]

[Цитировать] 

Последние два вобще супер)
info [Профиль]  [ЛС] 

GameOne

Пол: Пол:Муж

Стаж: 11 лет

Сообщений: 26

Украина
Рейтинг

post 05-Апр-2012 14:07 (спустя 10 дней) [-]0[+]

[Цитировать] 

круто же!
info [Профиль]  [ЛС] 

GameOne

Пол: Пол:Муж

Стаж: 11 лет

Сообщений: 26

Украина
Рейтинг

post 13-Апр-2012 12:17 (спустя 7 дней) [-]0[+]

[Цитировать] 

не качает совсем, в чём проблема то?
info [Профиль]  [ЛС] 

MrPavlik

Пол: Пол:Муж

Стаж: 9 лет 8 месяцев

Сообщений: 151

Россия
Рейтинг

post 27-Апр-2012 01:07 (спустя 13 дней) [-]0[+]

[Цитировать] 

Я на раздаче почти все время круглосуточно. Должно качаться...
info [Профиль]  [ЛС] 

forym16

Пол: Пол:Муж

Стаж: 9 лет 8 месяцев

Сообщений: 10

Рейтинг

post 05-Фев-2014 22:06 (спустя 1 год 9 месяцев) [-]0[+]

[Цитировать] 

Встаньте на раздачу плиз kolob_121
info [Профиль]  [ЛС] 

Urbansmoke

Пол: Пол:Муж

Стаж: 7 лет 10 месяцев

Сообщений: 2

Россия
Рейтинг

post 21-Июл-2014 17:15 (спустя 5 месяцев 15 дней) [-]0[+]

[Цитировать] 

не раздает
info [Профиль]  [ЛС] 

nopresent

Пол: Пол:Муж

Стаж: 4 года 1 месяц

Сообщений: 1

Украина
Рейтинг

post 06-Июл-2018 23:44 (спустя 3 года 11 месяцев) [-]0[+]

[Цитировать] 

GameOne писал(а):

не качает совсем, в чём проблема то?
Слушаю трек Damian Marley - There For You
читаю комент что не качает совсем ))
потом понимаю что загрузка не пошла
info [Профиль]  [ЛС] 
Показать сообщения:    
Ответить на тему

Текущее время: 02-Дек 23:56

Часовой пояс: GMT + 4



Вы не можете начинать темы
Вы не можете отвечать на сообщения
Вы не можете редактировать свои сообщения
Вы не можете удалять свои сообщения
Вы не можете голосовать в опросах
Вы не можете прикреплять файлы к сообщениям
Вы не можете скачивать файлы